Login
Username:
Password:
[Signup]
[Recover Account]


Browse Torrents

Poll


You must be logged in to view polls



Latest Torrents
Bounty Hunters 201...
- [Size: 673.40 MB]

WWE.TLC.2018.Kicko...
- [Size: 473.43 MB]

Alaska.The.Last.Fr...
- [Size: 343.34 MB]

Alaska.The.Last.Fr...
- [Size: 340.95 MB]

Criminal.Confessio...
- [Size: 609.47 MB]


Torrent Details For "Zapped.1982.1080p.BluRay.x264.DTS-FGT"

Zapped.1982.1080p.BluRay.x264.DTS-FGT

Download this torrent | Magnet Download
Health:
Seeds: 38
Leechers: 174
Completed: 70 
Last Checked: 06-12-2018 17:54:28
External Torrent
Update Stats



Images Host

Poster


iMDB
Title: Zapped!
Year: 1982
Runtime: 98 minutes
Votes: 5397
Rating: 4.9/10
Language: English
Tagline: An A+ comedy you have to get your hands on!
Director: Robert J. Rosenthal
Writing By: Bruce Rubin,Robert J. Rosenthal,
Produced By: Jeff Apple,Thomas M. Hammel,Jonathan Noah Krivine,Roger La Page,Fran Schuster,Howard R. Schuster,
Music: Charles Fox
Cast:
Scott Baio as Barney Springboro
Willie Aames as Peyton Nichols
Robert Mandan as Walter J. Coolidge
Felice Schachter as Bernadette
Scatman Crothers as Dexter Jones
Roger Bowen as Mr. Springboro
Mews Small as Mrs. Springboro
Greg Bradford as Robert Wolcott
Hilary Beane as Corrine Updike
Sue Ane Langdon as Rose Burnhart


Watch-Free-HD     Download

Details
Name:Zapped.1982.1080p.BluRay.x264.DTS-FGT
Description:
deo
ID : 1
Format : AVC
Format/Info : Advanced Video Codec
Format profile : [email protected]
Format settings, CABAC : Yes
Format settings, ReFrames : 4 frames
Codec ID : V_MPEG4/ISO/AVC
Duration : 1h 38mn
Bit rate : 11.5 Mbps
Width : 1 920 pixels
Height : 1 040 pixels
Display aspect ratio : 1.85:1
Frame rate mode : Constant
Frame rate : 23.976 (24000/1001) fps
Color space : YUV
Chroma subsampling : 4:2:0
Bit depth : 8 bits
Scan type : Progressive
Bits/(Pixel*Frame) : 0.240
Stream size : 7.65 GiB (86%)
Writing library : x264 core 148 r2601 a0cd7d3
Encoding settings : cabac=1 / ref=4 / deblock=1:-2:-2 / analyse=0x3:0x113 / me=umh / subme=7 / psy=1 / psy_rd=1.00:0.15 / mixed_ref=1 / me_range=16 / chroma_me=1 / trellis=1 / 8x8dct=1 / cqm=0 / deadzone=21,11 / fast_pskip=1 / chroma_qp_offset=-3 / threads=40 / lookahead_threads=3 / sliced_threads=0 / nr=0 / decimate=1 / interlaced=0 / bluray_compat=0 / constrained_intra=0 / bframes=3 / b_pyramid=2 / b_adapt=2 / b_bias=0 / direct=3 / weightb=1 / open_gop=0 / weightp=2 / keyint=250 / keyint_min=25 / scenecut=40 / intra_refresh=0 / rc_lookahead=50 / rc=abr / mbtree=1 / bitrate=11500 / ratetol=1.0 / qcomp=0.60 / qpmin=0 / qpmax=69 / qpstep=4 / vbv_maxrate=31250 / vbv_bufsize=31250 / nal_hrd=none / filler=0 / ip_ratio=1.40 / aq=1:1.00
Language : English
Default : Yes
Forced : No

Audio
ID : 2
Format : DTS
Format/Info : Digital Theater Systems
Mode : 16
Format settings, Endianness : Big
Codec ID : A_DTS
Duration : 1h 38mn
Bit rate mode : Constant
Bit rate : 1 509 Kbps
Channel(s) : 2 channels
Channel positions : Front: L R
Sampling rate : 48.0 KHz
Frame rate : 93.750 fps (512 spf)
Bit depth : 24 bits
Compression mode : Lossy
Stream size : 1.04 GiB (12%)
Language : English
Default : Yes
Forced : No



 http://imagecurl.com/viewer.p...8241033015549535.png



 http://imagecurl.com/viewer.p...2282225708563553.png



 http://imagecurl.com/viewer.p...5026701004015870.png



 http://imagecurl.com/viewer.p...1521673428924922.png



 http://imagecurl.com/viewer.p...0631349897628306.png



 http://imagecurl.com/viewer.p...8043094.png[/center]
Category:Movies > 1080P Bluray
Lang:English  English
Total Size:8.87 GB
Info Hash:3cc36c9b33dd92997e36c02d20335786bb805956
Added By:Scene
Date Added:06-12-2018 17:50:44
Downloads:48

Ratings:Not Yet Rated (Log in to rate it)


Tracker:
http://tracker.trackerfix.com:80/announce


File List: 


Comments

No comments still posted

Top
Copyright 2018 DownloadHD -|- Page Generated In 0.318235 secs.
-|- RSS Feed -|- Feed Info