Login
Username:
Password:
[Signup]
[Recover Account]


Browse Torrents

Poll


You must be logged in to view polls



Latest Torrents
Bounty Hunters 201...
- [Size: 673.40 MB]

WWE.TLC.2018.Kicko...
- [Size: 473.43 MB]

Alaska.The.Last.Fr...
- [Size: 343.34 MB]

Alaska.The.Last.Fr...
- [Size: 340.95 MB]

Criminal.Confessio...
- [Size: 609.47 MB]


Torrent Details For "Brooklyn.Rules.2007.LIMITED.1080p.BluRay.x264-RUSTED"

Brooklyn.Rules.2007.LIMITED.1080p.BluRay.x264-RUSTED

Download this torrent | Magnet Download
Health:
Seeds: 4
Leechers: 84
Completed:
Last Checked: 06-12-2018 17:50:15
External Torrent
Update Stats



Images Host

Poster


iMDB
Title: Brooklyn Rules
Year: 2007
Runtime: 99 minutes
Votes: 5274
Rating: 6.4/10
Language: English
Tagline: Not made to be broken
Director: Michael Corrente
Writing By: Terence Winter,
Produced By: Julie Bertrand,Steven Bowman,Bonnie Comley,Michael Corrente,Akiva Goldsman,Billy Heinzerling,Caroline Jaczko,Stewart F. Lane,Richard Barton Lewis,Darren Manelski,Chloe Kai O'Connor,Richard Perello,Mark Petruzzi,Marisa Polvino,Paul Sciala,Peter Sciala,Rachel Winter,Terence Winter,
Music: Benny Rietveld
Cast:
Paulo Araujo as Young Michael
Daniel Tay as Young Bobby
Ty Thomas Reed as Young Carmine
Brian O'Neill as Priest
Alec Baldwin as Caesar
Scott Caan as Carmine Mancuso
Jerry Ferrara as Bobby Canzoneri
Freddie Prinze Jr. as Michael Turner
Mena Suvari as Ellen
Alexa Havins as Blonde
Trailers:
Brooklyn Rules
Brooklyn Rules


Watch-Free-HD     Download

Details
Name:Brooklyn.Rules.2007.LIMITED.1080p.BluRay.x264-RUSTED
Description:
Video
ID : 1
Format : AVC
Format/Info : Advanced Video Codec
Format profile : [email protected]
Format settings : CABAC / 4 Ref Frames
Format settings, CABAC : Yes
Format settings, ReFrames : 4 frames
Codec ID : V_MPEG4/ISO/AVC
Duration : 1 h 39 min
Bit rate : 9 539 kb/s
Width : 1 920 pixels
Height : 1 080 pixels
Display aspect ratio : 16:9
Frame rate mode : Constant
Frame rate : 23.976 (24000/1001) FPS
Color space : YUV
Chroma subsampling : 4:2:0
Bit depth : 8 bits
Scan type : Progressive
Bits/(Pixel*Frame) : 0.192
Stream size : 6.45 GiB (84%)
Writing library : x264 core 133 r2334 a3ac64b
Encoding settings : cabac=1 / ref=4 / deblock=1:0:0 / analyse=0x3:0x133 / me=umh / subme=7 / psy=1 / psy_rd=1.00:0.00 / mixed_ref=1 / me_range=16 / chroma_me=1 / trellis=1 / 8x8dct=1 / cqm=0 / deadzone=21,11 / fast_pskip=0 / chroma_qp_offset=-2 / threads=18 / lookahead_threads=3 / sliced_threads=0 / nr=0 / decimate=1 / interlaced=fake / bluray_compat=0 / constrained_intra=0 / bframes=3 / b_pyramid=2 / b_adapt=1 / b_bias=0 / direct=1 / weightb=1 / open_gop=0 / weightp=2 / keyint=240 / keyint_min=23 / scenecut=40 / intra_refresh=0 / rc_lookahead=40 / rc=2pass / mbtree=1 / bitrate=9539 / ratetol=1.0 / qcomp=0.60 / qpmin=10 / qpmax=69 / qpstep=4 / cplxblur=20.0 / qblur=0.5 / ip_ratio=1.40 / aq=1:1.00
Language : English
Default : Yes
Forced : No

Audio
ID : 2
Format : DTS
Format/Info : Digital Theater Systems
Codec ID : A_DTS
Duration : 1 h 39 min
Bit rate mode : Constant
Bit rate : 1 509 kb/s
Channel(s) : 6 channels
Channel layout : C L R Ls Rs LFE
Sampling rate : 48.0 kHz
Frame rate : 93.750 FPS (512 SPF)
Bit depth : 16 bits
Compression mode : Lossy
Stream size : 1.05 GiB (14%)
Language : English
Default : Yes
Forced : No


 http://imagecurl.com/viewer.p...2544395375464264.png



 http://imagecurl.com/viewer.p...1946919099595768.png


 http://imagecurl.com/viewer.p...6700212.png[/center]
Category:Movies > 1080P Bluray
Lang:English  English
Total Size:7.65 GB
Info Hash:f017bb2a556884f74684f73f3404ea2a58769d01
Added By:Scene
Date Added:06-12-2018 17:38:50
Downloads:21

Ratings:Not Yet Rated (Log in to rate it)


Tracker:
http://tracker.trackerfix.com:80/announce


File List: 


Comments

No comments still posted

Top
Copyright 2018 DownloadHD -|- Page Generated In 0.315325 secs.
-|- RSS Feed -|- Feed Info