Login
Username:
Password:
[Signup]
[Recover Account]


Browse Torrents

Poll


You must be logged in to view polls



Latest Torrents
Brothers.in.Arms.S...
- [Size: 565.42 MB]

Brothers.in.Arms.S...
- [Size: 568.51 MB]

Once.Upon.a.Time.i...
- [Size: 15.30 GB]

Once.Upon.a.Time.i...
- [Size: 7.65 GB]

Dead Ringer 2018 1...
- [Size: 1.66 GB]


Torrent Details For "Venom 2018 720p BRRip x264 ESub [MW]"

Venom 2018 720p BRRip x264 ESub [MW]

Download this torrent | Magnet Download
Health:
Seeds: 26
Leechers: 67
Completed: 10 
Last Checked: 06-12-2018 11:05:56
External Torrent
Update Stats



Images Host

Poster
No poster


Watch-Free-HD     Download

Details
Name:Venom 2018 720p BRRip x264 ESub [MW]
Description:

 

General
Format                                   : Matroska
Format version                           : Version 4 / Version 2
File size                                : 909 MiB
Duration                                 : 1 h 52 min
Overall bit rate                         : 1 134 kb/s

Video
ID                                       : 1
Format                                   : AVC
Format/Info                              : Advanced Video Codec
Format profile                           : [email protected]
Format settings                          : CABAC / 4 Ref Frames
Format settings, CABAC                   : Yes
Format settings, RefFrames               : 4 frames
Codec ID                                 : V_MPEG4/ISO/AVC
Duration                                 : 1 h 52 min
Bit rate                                 : 1 000 kb/s
Width                                    : 1 280 pixels
Height                                   : 532 pixels
Display aspect ratio                     : 2.40:1
Frame rate mode                          : Constant
Frame rate                               : 23.976 (24000/1001) FPS
Color space                              : YUV
Chroma subsampling                       : 4:2:0
Bit depth                                : 8 bits
Scan type                                : Progressive
Bits/(Pixel*Frame)                       : 0.061
Stream size                              : 804 MiB (88%)
Writing library                          : x264 core 155 r2901 7d0ff22
Default                                  : Yes
Forced                                   : No

Audio
ID                                       : 2
Format                                   : AAC
Format/Info                              : Advanced Audio Codec
Format profile                           : LC
Codec ID                                 : A_AAC-2
Duration                                 : 1 h 52 min
Bit rate                                 : 128 kb/s
Channel(s)                               : 2 channels
Channel positions                        : Front: L R
Sampling rate                            : 48.0 kHz
Frame rate                               : 46.875 FPS (1024 SPF)
Compression mode                         : Lossy
Stream size                              : 103 MiB (11%)
Language                                 : English
Default                                  : Yes
Forced                                   : No

Text
ID                                       : 3
Format                                   : UTF-8
Codec ID                                 : S_TEXT/UTF8
Codec ID/Info                            : UTF-8 Plain Text
Duration                                 : 1 h 34 min
Bit rate                                 : 63 b/s
Count of elements                        : 1399
Stream size                              : 44.0 KiB (0%)
Language                                 : English
Default                                  : Yes
Forced                                   : No

Click To View Image

 http://pichub.site/image/cxjPZ
 http://pichub.site/image/cxeKD
 http://pichub.site/image/c04Jg
 http://pichub.site/image/c0fiI
 http://pichub.site/image/c0JoX
 ]http://pichub.site/image/c0Mb8]

Category:Movies > 720P Bluray
Lang:English  English
Total Size:909.19 MB
Info Hash:d4cdfea669416e506f6c0270ab0fb02faaa1fe1c
Added By:Freaky
Date Added:06-12-2018 11:05:42
Downloads:53

Ratings:Not Yet Rated (Log in to rate it)


Tracker:
udp://tracker.coppersurfer.tk:6969/announce


File List: 


Comments

No comments still posted

Top
Copyright 2018 DownloadHD -|- Page Generated In 0.778983 secs.
-|- RSS Feed -|- Feed Info